#TITLE:Cosmic eyes;
#SUBTITLE:;
#ARTIST:宝儿;
#TITLETRANSLIT:;
#SUBTITLETRANSLIT:;
#ARTISTTRANSLIT:;
#CREDIT:;
#BANNER:Cosmic Eyes_logo.jpg;
#BACKGROUND:Cosmic Eyes_bg.jpg;
#LYRICSPATH:;
#CDTITLE:Lan.png;
#MUSIC:Cosmic eyes.mp3;
#OFFSET:-0.020;
#SAMPLESTART:100.000;
#SAMPLELENGTH:12.000;
#SELECTABLE:YES;
#BPMS:0.000=160.000;
#STOPS:;
#BGCHANGES:;
// cache tags:
#FIRSTBEAT:4.000;
#LASTBEAT:387.750;
#SONGFILENAME:Songs/lan sky/Cosmic eyes/Cosmic eyes.sm;
#HASMUSIC:1;
#HASBANNER:1;
#MUSICLENGTH:145.911;
// end cache tags

//---------------dance-single - sky----------------
#NOTES:
     dance-single:
     sky:
     Hard:
     10:
     0.811,0.897,1.000,0.302,0.445,602.000,169.000,44.000,0.000,13.000:

0000
0000
0000
0000
,
1100
0000
0000
0000
0010
0000
0000
0100
0000
0000
0100
0000
0000
0000
1001
0000
,
0010
0000
0100
0000
0001
0000
0000
0001
0100
0000
0100
0000
1010
0000
0000
0000
,
0100
0000
0000
0000
0010
0000
0000
0100
0000
0000
0100
0000
0000
0000
0010
0000
,
1001
0000
0000
0000
0010
0000
0000
0000
0011
0000
0010
0000
0100
0001
0000
0000
,
0100
0000
0000
0000
0000
0000
0000
0000
0011
0000
0000
1000
0000
0000
0011
0000
0000
0000
0000
0000
0100
0000
0000
0000
0000
0000
0000
0000
0010
0000
0000
0000
,
0001
0000
0100
0000
0010
0000
0000
0010
0001
0000
0001
0000
0010
0001
0000
0000
,
0100
0000
0000
0000
0000
0000
0000
0000
1010
0000
0000
0001
0000
0000
1010
0000
0000
0000
0000
0000
1000
0000
0000
0000
0000
0000
0000
0000
0011
0000
0000
0000
,
1000
0000
0100
0000
0000
0010
0000
0010
0100
0000
0100
0000
0010
1000
0000
0000
,
0100
0000
0000
0000
0000
0000
0000
0000
1001
0000
0000
0010
0000
0000
1001
0000
0000
0000
0000
0000
0010
0000
0000
0000
0000
0000
0000
0000
1100
0000
0000
0000
,
0001
0000
0010
0000
1000
0000
0000
1000
0001
0000
0001
0000
1000
0000
0000
0000
,
0001
0000
0000
0000
0000
0000
0000
0000
1010
0000
0000
0100
0000
0000
1010
0000
0000
0000
0000
0000
0001
0000
0000
0000
0000
0000
0000
0000
1010
0000
0000
0000
,
0100
0000
0010
0000
1000
0000
0000
1000
0100
0000
0010
0000
1000
0100
0000
0000
,
0010
0000
0000
0000
0000
0000
0000
0000
0011
0000
0000
0010
0000
0000
0101
0000
0000
0000
0000
0000
0010
0000
0000
0000
0000
0000
0000
0000
0011
0000
0000
0000
,
1000
0000
0100
0000
0001
0000
0000
0001
0100
0000
0100
0000
0001
0000
0000
0000
,
0100
0000
0000
0000
0000
0000
0000
0000
0011
0000
0000
1000
0000
0000
0101
0000
0000
0000
0000
0000
0100
0000
0000
0000
0000
0000
0000
0000
1001
0000
0000
0000
,
1000
0000
0010
0000
0001
0000
0000
0001
0100
0000
0100
0000
0001
0010
0000
0000
,
1000
0000
0000
0000
0000
0000
0000
0000
0110
0000
0000
0010
0000
0000
0101
0000
0000
0000
0000
0000
0010
0000
0000
0000
0000
0000
0000
0000
0100
0000
0000
0000
,
0010
0000
1000
0000
0100
0000
0000
0100
0001
0000
0001
0000
0100
0000
0001
0000
,
0000
0000
0000
0000
0100
0000
0000
0100
0000
0000
0010
0000
0000
0000
0100
0000
,
0010
0000
1000
0000
0100
0000
0000
0100
0010
0000
1000
0000
0100
0010
0000
0000
,
0001
0000
0000
0000
0000
0000
0000
0000
0011
0000
0000
0001
0000
0000
0110
0000
0000
0000
0000
0000
0100
0000
0000
0000
0000
0000
0000
0000
1010
0000
0000
0000
,
1000
0000
0001
0000
0010
0000
0000
0010
0001
0000
0001
0000
0010
0000
0000
0000
,
0100
0000
0000
0000
0000
0000
0000
0000
0110
0000
0000
0100
0000
0000
1010
0000
0000
0000
0000
0000
0100
0000
0000
0000
0000
0000
0000
0000
0011
0000
0000
0000
,
0100
0000
1000
0000
0010
0000
0000
0010
0100
0000
0100
0000
0010
0100
0000
0000
,
0001
0000
0000
0000
0000
0000
0000
0000
1100
0000
0000
0001
0000
0000
1010
0000
0000
0000
0000
0000
0001
0000
0000
0000
0000
0000
0000
0000
1001
0000
0000
0000
,
0001
0000
0010
0000
1000
0000
0000
1000
0100
0000
0100
0000
0100
0000
0011
0000
,
0000
0000
1000
0001
1100
0001
1100
0000
,
1010
0000
0001
0000
1000
0000
0000
1000
0100
0000
0010
0000
1000
0001
0000
0000
,
0010
0000
0000
0000
0011
0000
0000
0011
0000
0000
0000
0100
0000
0000
0001
0000
,
1000
0000
0100
0000
0001
0000
0000
0001
1000
0000
1000
0000
0001
0000
0000
0000
,
0100
0000
0000
0000
0001
0000
0000
0001
0000
0000
0100
0000
0000
0000
0001
0000
,
1000
0000
0100
0000
0001
0000
0000
0001
0100
0000
0010
0000
0001
0100
0000
0000
,
0010
0000
0000
0000
0100
0000
0000
0100
0000
0000
0010
0000
0000
0000
0100
0000
,
0001
0000
1000
0000
0100
0000
0000
0100
0001
0000
0001
0000
0100
0000
0000
0000
,
0001
0000
0000
0000
0100
0000
0000
0100
0000
0000
0001
0000
0000
0000
0100
0000
,
1000
0000
0001
0000
0100
0000
0000
0100
0010
0000
0010
0000
0100
0001
2000
0000
,
0000
3000
0011
0110
,
2101
0000
0000
0000
0010
0000
3000
0002
0000
0000
0100
0000
0010
0003
0100
0000
,
1000
0000
0001
0000
1110
0000
0000
0010
1001
0000
0001
0000
1010
0000
0000
0000
,
1102
0000
0000
0000
0010
0000
0000
0010
0100
0000
0100
0000
1000
0000
0003
0000
,
0010
0000
0000
0000
1000
0000
0000
1000
0011
0000
0010
0000
1001
0000
0000
0000
,
0112
0000
0000
0000
1003
0000
0000
1000
0210
0000
0010
0000
1000
0000
0300
0000
,
0110
0000
0000
0000
1100
0000
0000
1000
0110
0000
0001
0000
1110
0000
0000
0000
,
0012
0000
0000
0000
1000
0000
0003
1100
0001
0000
0110
0000
1100
0000
0020
0000
,
0000
0000
0000
0000
0001
0000
0030
0001
1100
0000
1000
0000
0101
0001
0001
0001
,
0110
0000
0000
0000
0011
0000
0200
0001
1000
0000
1000
0000
0301
0000
0000
0000
,
1010
0000
0000
0000
1001
0000
0000
0001
1100
0000
0100
0000
1001
0000
0000
0000
,
1020
0000
0000
0000
0001
0000
0030
0001
2100
0000
0100
0000
0001
0000
3000
0000
,
1010
0000
0000
0000
0110
0000
0000
0100
0011
0000
1000
0000
0110
0000
0000
0000
,
2011
0000
0000
0000
0100
0000
3000
0120
0001
0000
1000
0000
0100
0030
0000
0000
,
0012
0000
0000
0000
0100
0000
0003
0120
1000
0000
0001
0000
0100
0030
0000
0000
,
2011
0000
0000
0000
0100
0000
0000
0100
0001
0000
0001
0000
0100
0000
3000
0000
,
1001
0000
0000
0000
1010
0000
0000
0010
1100
0000
0001
0000
1010
0010
0010
0010
,
2101
0000
0000
0001
0010
0000
3000
0200
0010
0000
0000
0000
0000
0000
0300
0000
,
0101
1100
0011
1010
,
0201
0000
0000
0000
1000
0000
0300
2000
0010
0000
0001
0000
0000
3000
0000
0000
,
0110
0101
1100
1110
,
0102
0000
1000
0000
0013
1000
0100
1000
,
0010
1100
0110
1100
,
0210
0000
1000
0000
0000
0010
1000
0301
,
0000
0000
0000
0100
0000
0001
0000
1000
0010
0001
0000
0000
0011
0001
0001
0001
,
0110
0000
0000
0000
0000
0000
0000
0000
0011
0000
0000
1000
0000
0000
0011
0000
0000
0000
0000
0000
0000
0000
0100
0000
0000
0000
0000
0000
0001
0000
0000
0000
,
0000
0000
0100
0000
0001
0000
0000
0001
0100
0000
0100
0000
0011
0000
0000
0000
,
1000
0000
0000
0000
0000
0000
0000
0000
0101
0000
0000
0010
0000
0000
0011
0000
0000
0000
0000
0000
0000
0000
0010
0000
0000
0000
0000
0000
0001
0000
0000
0000
,
0000
0000
0010
0000
0100
0000
0000
0100
1000
0000
0001
0000
0100
0000
0000
0000
,
0011
0000
0000
0000
0000
0000
0000
0000
0101
0000
0000
0010
0000
0000
0101
0000
0000
0000
0000
0000
0000
0000
0001
0000
0000
0000
0000
0000
0110
0000
0000
0000
,
0000
0000
0001
0000
0100
0000
0000
0100
0010
0000
0001
0000
0100
0000
0000
0000
,
0011
0000
0000
0000
0000
0000
0000
0000
1100
0000
0000
0010
0000
0000
1100
0000
0000
0000
0000
0000
0001
0000
0000
0000
0000
0000
0000
0000
0101
0000
0000
0000
,
0000
0000
0001
0000
0010
0000
0000
0010
0100
0000
0100
0000
0010
0100
0001
0000
,
2200
0000
0000
3300
0001
0000
0001
0000
,
0101
0000
0000
0000
0011
0000
0000
0012
0100
0000
0100
0000
0010
0003
0000
0000
,
1100
0000
0000
0000
0110
0000
0000
0010
0101
0000
0001
0000
0110
0000
0000
0000
,
0200
0000
0000
0000
1000
0000
0300
1000
0012
0000
0010
0000
1000
0000
0003
0000
,
0011
0000
0000
0000
1001
0000
0000
1000
0101
0000
0100
0000
1001
0000
0000
0000
,
0210
0000
0000
0000
1000
0000
0300
1002
0010
0000
0010
0000
1000
0003
0000
0000
,
0201
0000
0000
0000
1000
0000
0300
1000
0011
0000
0010
0000
1001
0000
0000
0000
,
0120
0000
0000
0000
0001
0000
0000
0001
0100
0000
1000
0000
0001
0000
0030
0000
,
1000
0000
0000
0000
0001
0000
0000
0001
0110
0000
0100
0000
0011
0001
0001
0001
,
1020
0000
0000
0000
0001
0000
0030
2001
0100
0000
0010
0000
0001
3000
0000
0000
,
0110
0000
0000
0000
0011
0000
0000
0001
1010
0000
1000
0000
0011
0000
0000
0000
,
2010
0000
0000
0000
0100
0000
0000
0100
0010
0000
0001
0000
0100
0000
3000
0000
,
1000
0000
0000
0000
0100
0000
0000
0100
0011
0000
1000
0000
0101
0000
0000
0000
,
0012
0000
0000
0000
0100
0000
0003
2100
0010
0000
0001
0000
0100
3000
0000
0000
,
1011
0000
0000
0000
1110
0000
0000
0100
1011
0000
0001
0000
1110
0000
0000
0000
,
0102
0000
0000
0000
0010
0000
0003
1000
0010
0000
1001
0000
1010
0000
1100
0000
,
0001
0000
1000
0000
0010
0000
0000
0010
1100
0000
0100
0000
1010
0010
0010
0010
,
1001
0000
1000
0000
1010
0010
1000
0100
,
0101
0010
0001
0000
0011
0100
0011
0000
,
0120
0000
0000
0000
1000
0000
0030
1200
0001
0000
0001
0000
1000
0300
0000
0000
,
0110
0000
0000
0000
1100
0000
0000
1000
0110
0000
0010
0000
1100
0000
0000
0000
,
0201
0000
0000
0000
1000
0000
0300
1002
0010
0000
0100
0000
1000
0003
0000
0000
,
0210
0000
0000
0000
1000
0000
0300
1002
0010
0000
0100
0000
1000
0103
0000
0000
,
0012
0000
0000
0000
1000
0100
0000
0013
,
0001
0010
0000
0000
0100
0100
0001
0000
,
0010
0000
0000
0000
0001
0000
0000
0001
0100
0000
0100
0000
0001
0000
0000
0000
,
1000
0000
0000
0000
0001
0000
0000
0001
0100
0000
0100
0000
0001
0001
0001
0001
;
